Sundown 2016 1080p full Torrent Download

0
102
Torrent Health 25 Seeds 15 Peers

Sundown 2016 1080p

Sundown 2016 1080p full Torrent Download

Trusted torrent
Sundown 2016 1080p

================================================== ==================

================================================== ==================

================================================== ==================

================================================== ==================

video

ID: 1

Format: AVC

Format / Info: Advanced Video Codec

Format profile: / * * /

format settings, CABAC: Yes

format settings, reframes: 5 image

Codec ID: V_MPEG4 / ISO / AVC

43mn 1 hours:

SedikitTingkat: 4349kbps

width: 1908pixels

Length: 792 pixels

aspect ratio :: 1

Frame rate mode: Constant

Frame rate: (24000/1001) fps

Color Space: YUV

Chroma subsampling: 4: 2: 0

Bit Depth: 8 bit

Scan type: Progressive

Bits / (Pixel * Frame):

Stream size: MiB (90%)

title:

Bahasa Inggeris

Default: Yes

Force: None

Various colors: Restricted

Early color:

transfer characteristics:

the coefficient matrix:

================================================== ==================

audio

ID: 2

Format: AC-3

size / Info: Audio Coding 3

advanced fashion:CM (primary packaging)

format settings, endianness: General

Codec ID: A_AC3

43mn 1 hours:

Bit rate mode: Constant

Bit rate: 384 Kbps

Channel (s): 6 channels

Channel positions: Front: L C R, Side: LR, LFE

Sampling rate: KHz

fps frame rate (SPF 1536)

Compression mode: Lossy

Stream size: 285 MiB (8%)

title:

Bahasa Inggeris

Default: Yes

Force: None

================================================== ==================

text

ID: 3

Format: UTF-8

Codec ID: S_TEXT / UTF8

Codec ID / Info: UTF-8 Plain Text

Bahasa Inggeris

Default:yes

Force: None

================================================== ==================

menu

00:00: and: 1

00:03: and: 2

00:10: and: 3

00:18: and: 4

00:27: and: 5

00:37: and: 6

00:47: and: 7

00:57: and: 8

01:08: and: 9

01:16: and: 10

01:25: and: 11

01:35: and: 12

================================================== ==================

================================================== ==================

================================================== ==================

GreetzUntuk: SAM | oziman| juggs | LRS | Surendra | six | Masta | MGB | 3li | tomcat12 | BADASSMEDIA | Ozlem | TRG and other ExtraTorrent Admin |.

================================================== ==================

. Vaiana 2016 PDVD
ac.id/2016/12/12/the-comedian-2016-full-torrent-download/”>The Comedian 2016
.

Sundown 2016 1080p

LEAVE A REPLY